Zone Telechargement

Dernières actualités du site :

Ex: ZoneTelechargement torrents


General Commander
General Commander




Qualité/Format/Langue : HDLight 1080p MULTI

Après avoir vu un membre de son équipe se faire tuer au cours d'une opération d'infiltration, l'agent de la CIA Jake Alexander réclame vengeance contre Orsini, le chef de la mafia. Mais la CIA ne sanctionnera pas le coup. Jake et son équipe quittent alors l’agence pour former un groupe d’intervention chargé d’une seule mission : mener une vendetta.NFO Show/hide text General Unique ID : 23351526426252288572482799298613914771 (0x11915724660394CF8D5E0B25F720AC93) Complete name : General.Commander.2019.MULTi.1080p.BluRay.Light.x264.AC3-ACOOL.WwW.Zone-Telechargement.Net.mkv Format : Matroska Format version : Version 4 / Version 2 File size : 2.09 GiB Duration : 1 h 25 min Overall bit rate : 3 498 kb/s Movie name : General Commander Encoded date : UTC 2019-09-09 21:48:37 Writing application : mkvmerge v25.0.0 ('Prog Noir') 64-bit Writing library : libebml v1.3.6 + libmatroska v1.4.9 Video ID : 1 Format : AVC Format/Info : Advanced Video Codec Format profile : [email protected] Format settings : CABAC / 4 Ref Frames Format settings, CABAC : Yes Format settings, ReFrames : 4 frames Codec ID : V_MPEG4/ISO/AVC Duration : 1 h 25 min Bit rate : 2 600 kb/s Width : 1 920 pixels Height : 808 pixels Display aspect ratio : 2.40:1 Original display aspect rat : 2.40:1 Frame rate mode : Constant Frame rate : 23.976 (24000/1001) FPS Color space : YUV Chroma subsampling : 4:2:0 Bit depth : 8 bits Scan type : Progressive Bits/(Pixel*Frame) : 0.070 Stream size : 1.56 GiB (74%) Writing library : x264 core 155 r2901 7d0ff22 Encoding settings : cabac=1 / ref=1 / deblock=1:0:0 / analyse=0x3:0x113 / me=hex / subme=2 / psy=1 / psy_rd=1.00:0.00 / mixed_ref=0 / me_range=16 / chroma_me=1 / trellis=0 / 8x8dct=1 / cqm=0 / deadzone=21,11 / fast_pskip=1 / chroma_qp_offset=0 / threads=25 / lookahead_threads=6 / sliced_threads=0 / nr=0 / decimate=1 / interlaced=0 / bluray_compat=0 / constrained_intra=0 / bframes=3 / b_pyramid=2 / b_adapt=1 / b_bias=0 / direct=1 / weightb=1 / open_gop=0 / weightp=1 / keyint=240 / keyint_min=24 / scenecut=40 / intra_refresh=0 / rc_lookahead=10 / rc=2pass / mbtree=1 / bitrate=2600 / ratetol=1.0 / qcomp=0.60 / qpmin=0 / qpmax=69 / qpstep=4 / cplxblur=20.0 / qblur=0.5 / vbv_maxrate=62500 / vbv_bufsize=78125 / nal_hrd=none / filler=0 / ip_ratio=1.40 / aq=1:1.00 Default : Yes Forced : No Color range : Limited Color primaries : BT.709 Transfer characteristics : BT.709 Matrix coefficients : BT.709 Audio #1 ID : 2 Format : AC-3 Format/Info : Audio Coding 3 Codec ID : A_AC3 Duration : 1 h 25 min Bit rate mode : Constant Bit rate : 448 kb/s Channel(s) : 6 channels Channel positions : Front: L C R, Side: L R, LFE Sampling rate : 48.0 kHz Frame rate : 31.250 FPS (1536 SPF) Bit depth : 16 bits Compression mode : Lossy Stream size : 275 MiB (13%) Title : French AC3 5.1 448kb/s Language : French Service kind : Complete Main Default : Yes Forced : No Audio #2 ID : 3 Format : AC-3 Format/Info : Audio Coding 3 Codec ID : A_AC3 Duration : 1 h 25 min Bit rate mode : Constant Bit rate : 448 kb/s Channel(s) : 6 channels Channel positions : Front: L C R, Side: L R, LFE Sampling rate : 48.0 kHz Frame rate : 31.250 FPS (1536 SPF) Bit depth : 16 bits Compression mode : Lossy Stream size : 275 MiB (13%) Title : English AC3 5.1 448kb/s Language : English Service kind : Complete Main Default : No Forced : No Text #1 ID : 4 Format : UTF-8 Codec ID : S_TEXT/UTF8 Codec ID/Info : UTF-8 Plain Text Duration : 1 h 21 min Bit rate : 1 b/s Count of elements : 32 Stream size : 953 Bytes (0%) Title : FR Forced Language : French Default : Yes Forced : Yes Text #2 ID : 5 Format : UTF-8 Codec ID : S_TEXT/UTF8 Codec ID/Info : UTF-8 Plain Text Duration : 1 h 22 min Bit rate : 56 b/s Count of elements : 967 Stream size : 34.0 KiB (0%) Title : FULL FR Language : French Default : No Forced : No Text #3 ID : 6 Format : UTF-8 Codec ID : S_TEXT/UTF8 Codec ID/Info : UTF-8 Plain Text Duration : 1 h 24 min Bit rate : 47 b/s Count of elements : 1036 Stream size : 29.8 KiB (0%) Title : English SDH Language : English Default : No Forced : No Menu 00:00:00.000 : en:00:00:00.000 00:13:48.828 : en:00:13:48.828 00:25:04.586 : en:00:25:04.586 00:36:05.789 : en:00:36:05.789 00:47:17.334 : en:00:47:17.334 00:58:56.867 : en:00:58:56.867 01:11:05.052 : en:01:11:05.052 01:22:28.777 : en:01:22:28.777


uptobox 1fichier uploaded turbobit

telecharger

Voir aussi :

Nom du torrent Taille Qualité
General Commander 2,1 Go HDLight 1080p MULTI
Dumbo (2019-03-27) 1.36 Go DVDRIP
50 To 1 700 Mo DVDRIP TRUEFRENCH
Younger Saison 6 Episode 3 HDTV VOSTFR
The Shamer 700 Mo BDRIP FRENCH