Zone Telechargement

Dernières actualités du site :

Ex: ZoneTelechargement torrents


At Eternity's Gate
At Eternity's Gate




Qualité/Format/Langue : HDLight 1080p MULTI

Un voyage dans l'esprit et l'univers d'un homme qui, malgré le scepticisme, le ridicule et la maladie, a créé l'une des œuvres les plus incroyables et admirées au monde. Sans être une biographie officielle, le film s'inspire des lettres de Vincent van Gogh, d'événements de sa vie, de rumeurs et de moments réels ou purement imaginaires.NFO Show/hide text General Unique ID : 24715237913840190168684005676775596918 (0x1297FB4F4164246FD32F278600EF6376) Complete name : At.Eternitys.Gate.2018.MULTi.TRUEFRENCH.1080p.BluRay.Light.x264.AC3-ACOOL.WwW.Zone-Telechargement.Net.mkv Format : Matroska Format version : Version 4 / Version 2 File size : 2.71 GiB Duration : 1 h 51 min Overall bit rate : 3 497 kb/s Movie name : At Eternity's Gate Encoded date : UTC 2019-08-29 21:10:13 Writing application : mkvmerge v25.0.0 ('Prog Noir') 64-bit Writing library : libebml v1.3.6 + libmatroska v1.4.9 Video ID : 1 Format : AVC Format/Info : Advanced Video Codec Format profile : [email protected] Format settings : CABAC / 4 Ref Frames Format settings, CABAC : Yes Format settings, ReFrames : 4 frames Codec ID : V_MPEG4/ISO/AVC Duration : 1 h 51 min Bit rate : 2 600 kb/s Width : 1 920 pixels Height : 800 pixels Display aspect ratio : 2.40:1 Frame rate mode : Constant Frame rate : 24.000 FPS Color space : YUV Chroma subsampling : 4:2:0 Bit depth : 8 bits Scan type : Progressive Bits/(Pixel*Frame) : 0.071 Stream size : 2.02 GiB (74%) Writing library : x264 core 155 r2901 7d0ff22 Encoding settings : cabac=1 / ref=1 / deblock=1:0:0 / analyse=0x3:0x113 / me=hex / subme=2 / psy=1 / psy_rd=1.00:0.00 / mixed_ref=0 / me_range=16 / chroma_me=1 / trellis=0 / 8x8dct=1 / cqm=0 / deadzone=21,11 / fast_pskip=1 / chroma_qp_offset=0 / threads=25 / lookahead_threads=6 / sliced_threads=0 / nr=0 / decimate=1 / interlaced=0 / bluray_compat=0 / constrained_intra=0 / bframes=3 / b_pyramid=2 / b_adapt=1 / b_bias=0 / direct=1 / weightb=1 / open_gop=0 / weightp=1 / keyint=240 / keyint_min=24 / scenecut=40 / intra_refresh=0 / rc_lookahead=10 / rc=2pass / mbtree=1 / bitrate=2600 / ratetol=1.0 / qcomp=0.60 / qpmin=0 / qpmax=69 / qpstep=4 / cplxblur=20.0 / qblur=0.5 / vbv_maxrate=62500 / vbv_bufsize=78125 / nal_hrd=none / filler=0 / ip_ratio=1.40 / aq=1:1.00 Default : Yes Forced : No Color range : Limited Color primaries : BT.709 Transfer characteristics : BT.709 Matrix coefficients : BT.709 Audio #1 ID : 2 Format : AC-3 Format/Info : Audio Coding 3 Codec ID : A_AC3 Duration : 1 h 51 min Bit rate mode : Constant Bit rate : 448 kb/s Channel(s) : 6 channels Channel positions : Front: L C R, Side: L R, LFE Sampling rate : 48.0 kHz Frame rate : 31.250 FPS (1536 SPF) Bit depth : 16 bits Compression mode : Lossy Stream size : 356 MiB (13%) Title : VFF AC3 5.1 448kb/s Language : French Service kind : Complete Main Default : Yes Forced : No Audio #2 ID : 3 Format : AC-3 Format/Info : Audio Coding 3 Codec ID : A_AC3 Duration : 1 h 51 min Bit rate mode : Constant Bit rate : 448 kb/s Channel(s) : 6 channels Channel positions : Front: L C R, Side: L R, LFE Sampling rate : 48.0 kHz Frame rate : 31.250 FPS (1536 SPF) Bit depth : 16 bits Compression mode : Lossy Stream size : 356 MiB (13%) Title : English AC3 5.1 448kb/s Language : English Service kind : Complete Main Default : No Forced : No Text #1 ID : 4 Format : UTF-8 Codec ID : S_TEXT/UTF8 Codec ID/Info : UTF-8 Plain Text Duration : 1 h 43 min Bit rate : 0 b/s Count of elements : 8 Stream size : 310 Bytes (0%) Title : FR Forced Language : French Default : Yes Forced : Yes Text #2 ID : 5 Format : UTF-8 Codec ID : S_TEXT/UTF8 Codec ID/Info : UTF-8 Plain Text Duration : 1 h 50 min Bit rate : 36 b/s Count of elements : 800 Stream size : 29.5 KiB (0%) Title : FULL FR Language : French Default : No Forced : No Menu 00:00:00.000 : :Chapter 01 00:11:45.500 : :Chapter 02 00:22:29.042 : :Chapter 03 00:41:11.000 : :Chapter 04 00:54:58.042 : :Chapter 05 01:10:16.667 : :Chapter 06 01:25:35.958 : :Chapter 07 01:30:45.583 : :Chapter 08 01:41:52.750 : :Chapter 09




telecharger

Voir aussi :

Nom du torrent Taille Qualité
At Eternity's Gate 2,7 Go HDLight 1080p MULTI
Dumbo (2019-03-27) 1.36 Go DVDRIP
50 To 1 700 Mo DVDRIP TRUEFRENCH
Younger Saison 6 Episode 3 HDTV VOSTFR
The Shamer 700 Mo BDRIP FRENCH