Zone Telechargement

Dernières actualités du site :

Ex: ZoneTelechargement torrents


Booksmart
Booksmart



Origine du film :U.S.A.
Réalisateur(s) :Olivia Wilde
Acteur(s) :Beanie Feldstein, Kaitlyn Dever, Billie Lourd
Genre :Comédie,
Titre Original :Booksmart
Note spectateur : - 3.1/5
Qualité/Format/Langue : HDLight 1080p MULTI

Deux jeunes filles de terminale prennent conscience qu'elles auraient dû profiter davantage des " années lycée " afin de s'amuser et décident de se trouver un petit ami avant la fin de l'année scolaire. NFO Show/hide text General Unique ID : 91135339899358471574546568356297691670 (0x4490072BB0ABB95B2E92AF3EBB2FD216) Complete name : Booksmart.2019.MULTi.TRUEFRENCH.1080p.BluRay.Light.x264.AC3-ACOOL.WwW.Zone-Telechargement.Net.mkv Format : Matroska Format version : Version 4 / Version 2 File size : 2.50 GiB Duration : 1 h 42 min Overall bit rate : 3 492 kb/s Movie name : Booksmart Encoded date : UTC 2019-08-24 14:53:48 Writing application : mkvmerge v25.0.0 ('Prog Noir') 64-bit Writing library : libebml v1.3.6 + libmatroska v1.4.9 Video ID : 1 Format : AVC Format/Info : Advanced Video Codec Format profile : [email protected] Format settings : CABAC / 4 Ref Frames Format settings, CABAC : Yes Format settings, ReFrames : 4 frames Codec ID : V_MPEG4/ISO/AVC Duration : 1 h 42 min Bit rate : 2 600 kb/s Width : 1 920 pixels Height : 800 pixels Display aspect ratio : 2.40:1 Frame rate mode : Constant Frame rate : 23.976 (24000/1001) FPS Color space : YUV Chroma subsampling : 4:2:0 Bit depth : 8 bits Scan type : Progressive Bits/(Pixel*Frame) : 0.071 Stream size : 1.86 GiB (74%) Writing library : x264 core 155 r2901 7d0ff22 Encoding settings : cabac=1 / ref=1 / deblock=1:0:0 / analyse=0x3:0x113 / me=hex / subme=2 / psy=1 / psy_rd=1.00:0.00 / mixed_ref=0 / me_range=16 / chroma_me=1 / trellis=0 / 8x8dct=1 / cqm=0 / deadzone=21,11 / fast_pskip=1 / chroma_qp_offset=0 / threads=25 / lookahead_threads=6 / sliced_threads=0 / nr=0 / decimate=1 / interlaced=0 / bluray_compat=0 / constrained_intra=0 / bframes=3 / b_pyramid=2 / b_adapt=1 / b_bias=0 / direct=1 / weightb=1 / open_gop=0 / weightp=1 / keyint=240 / keyint_min=24 / scenecut=40 / intra_refresh=0 / rc_lookahead=10 / rc=2pass / mbtree=1 / bitrate=2600 / ratetol=1.0 / qcomp=0.60 / qpmin=0 / qpmax=69 / qpstep=4 / cplxblur=20.0 / qblur=0.5 / vbv_maxrate=62500 / vbv_bufsize=78125 / nal_hrd=none / filler=0 / ip_ratio=1.40 / aq=1:1.00 Default : Yes Forced : No Color range : Limited Color primaries : BT.709 Transfer characteristics : BT.709 Matrix coefficients : BT.709 Audio #1 ID : 2 Format : AC-3 Format/Info : Audio Coding 3 Codec ID : A_AC3 Duration : 1 h 42 min Bit rate mode : Constant Bit rate : 448 kb/s Channel(s) : 6 channels Channel positions : Front: L C R, Side: L R, LFE Sampling rate : 48.0 kHz Frame rate : 31.250 FPS (1536 SPF) Bit depth : 16 bits Compression mode : Lossy Delay relative to video : 28 ms Stream size : 328 MiB (13%) Title : VFF AC3 5.1 448kb/s Language : French Service kind : Complete Main Default : Yes Forced : No Audio #2 ID : 3 Format : AC-3 Format/Info : Audio Coding 3 Codec ID : A_AC3 Duration : 1 h 42 min Bit rate mode : Constant Bit rate : 448 kb/s Channel(s) : 6 channels Channel positions : Front: L C R, Side: L R, LFE Sampling rate : 48.0 kHz Frame rate : 31.250 FPS (1536 SPF) Bit depth : 16 bits Compression mode : Lossy Stream size : 328 MiB (13%) Title : English AC3 5.1 448kb/s Language : English Service kind : Complete Main Default : No Forced : No Text #1 ID : 4 Format : UTF-8 Codec ID : S_TEXT/UTF8 Codec ID/Info : UTF-8 Plain Text Duration : 1 h 24 min Bit rate : 1 b/s Count of elements : 36 Stream size : 1.08 KiB (0%) Title : FR Forced Language : French Default : Yes Forced : Yes Text #2 ID : 5 Format : UTF-8 Codec ID : S_TEXT/UTF8 Codec ID/Info : UTF-8 Plain Text Duration : 1 h 42 min Bit rate : 77 b/s Count of elements : 1777 Stream size : 58.1 KiB (0%) Title : FULL FR Language : French Default : No Forced : No


uptobox 1fichier uploaded turbobit

telecharger

Voir aussi :

Nom du torrent Taille Qualité
Booksmart 2,5 Go HDLight 1080p MULTI
Dumbo (2019-03-27) 1.36 Go DVDRIP
50 To 1 700 Mo DVDRIP TRUEFRENCH
Younger Saison 6 Episode 3 HDTV VOSTFR
The Shamer 700 Mo BDRIP FRENCH