Zone Telechargement

Dernières actualités du site :

Ex: ZoneTelechargement torrents


Brightburn - L'enfant du mal
Brightburn - L'enfant du mal



Origine du film :U.S.A.
Réalisateur(s) :David Yarovesky
Acteur(s) :Elizabeth Banks, David Denman, Jackson A. Dunn
Genre :Epouvante-horreur,
Année de sortie :2019-06-26
Titre Original :Brightburn
Note spectateur : - 2.9/5
Qualité/Format/Langue : HDLight 720p FRENCH

Un enfant venu d'un autre monde se pose en catastrophe sur Terre. Loin de devenir un héros aux yeux de l'humanité, il va se révéler terriblement malveillant… NFO Show/hide text General Unique ID : 275055516253750731224971150101666843072 (0xCEEDC3F89B82CA2E015E5EF261CFC9C0) Complete name : G:BrghBrn720HDRILIGHT265-Zone-Telechargement.NET.mkv Format : Matroska Format version : Version 4 File size : 525 MiB Duration : 1 h 30 min Overall bit rate : 812 kb/s Movie name : Brightburn Encoded date : UTC 2019-08-07 08:57:44 Writing application : mkvmerge v22.0.0 ('At The End Of The World') 64-bit Writing library : libebml v1.3.5 + libmatroska v1.4.8 Video ID : 1 Format : HEVC Format/Info : High Efficiency Video Coding Format profile : [email protected]@Main Codec ID : V_MPEGH/ISO/HEVC Duration : 1 h 30 min Bit rate : 426 kb/s Width : 1 248 pixels Height : 520 pixels Display aspect ratio : 2.40:1 Frame rate mode : Variable Frame rate : 23.976 FPS Color space : YUV Chroma subsampling : 4:2:0 Bit depth : 8 bits Bits/(Pixel*Frame) : 0.027 Stream size : 276 MiB (52%) Writing library : x265 2.5+9-fdf39a97ecb8:[Linux][GCC 6.4.0][64 bit] 8bit+10bit+12bit Encoding settings : cpuid=1173503 / frame-threads=3 / wpp / no-pmode / no-pme / no-psnr / no-ssim / log-level=2 / input-csp=1 / input-res=1248x520 / interlace=0 / total-frames=0 / level-idc=0 / high-tier=1 / uhd-bd=0 / ref=3 / no-allow-non-conformance / no-repeat-headers / annexb / no-aud / no-hrd / info / hash=0 / no-temporal-layers / open-gop / min-keyint=23 / keyint=250 / bframes=4 / b-adapt=2 / b-pyramid / bframe-bias=0 / rc-lookahead=20 / lookahead-slices=0 / scenecut=40 / no-intra-refresh / ctu=64 / min-cu-size=8 / no-rect / no-amp / max-tu-size=32 / tu-inter-depth=1 / tu-intra-depth=1 / limit-tu=0 / rdoq-level=0 / dynamic-rd=0.00 / no-ssim-rd / signhide / no-tskip / nr-intra=0 / nr-inter=0 / no-constrained-intra / strong-intra-smoothing / max-merge=2 / limit-refs=3 / no-limit-modes / me=1 / subme=2 / merange=57 / temporal-mvp / weightp / no-weightb / no-analyze-src-pics / deblock=0:0 / sao / no-sao-non-deblock / rd=3 / no-early-skip / rskip / no-fast-intra / no-tskip-fast / no-cu-lossless / no-b-intra / rdpenalty=0 / psy-rd=2.00 / psy-rdoq=0.00 / no-rd-refine / analysis-reuse-mode=0 / no-lossless / cbqpoffs=0 / crqpoffs=0 / rc=crf / crf=25.0 / qcomp=0.60 / qpstep=4 / stats-write=0 / stats-read=0 / ipratio=1.40 / pbratio=1.30 / aq-mode=1 / aq-strength=1.00 / cutree / zone-count=0 / no-strict-cbr / qg-size=32 / no-rc-grain / qpmax=69 / qpmin=0 / no-const-vbv / sar=1 / overscan=0 / videoformat=5 / range=0 / colorprim=2 / transfer=2 / colormatrix=2 / chromaloc=0 / display-window=0 / max-cll=0,0 / min-luma=0 / max-luma=255 / log2-max-poc-lsb=8 / vui-timing-info / vui-hrd-info / slices=1 / opt-qp-pps / opt-ref-list-length-pps / no-multi-pass-opt-rps / scenecut-bias=0.05 / no-opt-cu-delta-qp / no-aq-motion / no-hdr / no-hdr-opt / no-dhdr10-opt / analysis-reuse-level=5 / scale-factor=0 / refine-intra=0 / refine-inter=0 / refine-mv=0 / no-limit-sao / ctu-info=0 Language : English Default : Yes Forced : No Audio ID : 2 Format : AC-3 Format/Info : Audio Coding 3 Commercial name : Dolby Digital Codec ID : A_AC3 Duration : 1 h 30 min Bit rate mode : Constant Bit rate : 384 kb/s Channel(s) : 6 channels Channel layout : L R C LFE Ls Rs Sampling rate : 48.0 kHz Frame rate : 31.250 FPS (1536 SPF) Bit depth : 16 bits Compression mode : Lossy Stream size : 249 MiB (47%) Title : French VFQ 5.1 AC3 384 Kbps Language : French Service kind : Complete Main Default : Yes Forced : No Text ID : 3 Format : UTF-8 Codec ID : S_TEXT/UTF8 Codec ID/Info : UTF-8 Plain Text Duration : 1 h 27 min Bit rate : 0 b/s Count of elements : 7 Stream size : 277 Bytes (0%) Title : Forced Language : French Default : Yes Forced : Yes


1fichier uploaded turbobit

telecharger

Voir aussi :

Nom du torrent Taille Qualité
Brightburn - L'enfant du mal 525 Mo HDLight 720p FRENCH
Iron Sky 2 1,5 Go HDLight 720p
Grantchester Saison 4 Episode 2 HD 720p FRENCH
Les Filles du soleil (2018-11-21) 2,6 Go WEB-DL 720p
Rocketman (2019-05-29) 1.4 Go BDRIP FRENCH